BD JAZZ - Miles Davis - 2 CD MILES DAVIS CD1 - Whispering" инфо.

Жанр: Jazz, Bop, Cool Год выпуска диска: 2003 Производитель диска: Nocturne - Paris - France Аудио кодек: FLAC Тип рипа: image+cue Битрейт аудио: lossless Продолжительность: 146 минут Трэклист: BD JAZZ MILES аишбгDAVIS CD1 - Whispering Total time: 77:27 1 Move 2:35 2 Godchild 3:10 3 Jeru 3:14 4 Budo 2:35 5 Venus De Milo 3:13 6 Bloplicity 3:02 7 Israel 2:18 8 Rouge 3:15 9 Moon Dreams 3:20 10 Deception 2:49 11 Rocker 3:07 12 Whispering 3:02 13 My Old Flame 6:36 14 Iаймшвt's Only A Paper Moon 5:26 15 Dear Old Stockholm 4:12 16 Yesterdays 3:44 17 Tasty Pudding 3:23 18 Ray's Idea 3:48 19 Inigma 3:27 20 When Lights Are Low 3:30 21 Smooch 3:09 22 Miles Ahead 4:32BD JAZZ MILES DAVIS CD2 - Walkin' Total time: 68:33 1 The Leap 4:34 2 It Never Entered My Mind 4:04 3 Four 4:02 4 Old Devil Moon 3:24 5 Blue Haze 6:09 6 Solar 4:44 7 I'll Remember April 7:54 8 You Don't Know What Love Is 4:24 9 Walkin' 13:27 10 Oleo 5:13 11 Doxy 4:55 12 But Notакафч For Me 5:43Доп информация: MediaInfoMiles Davis - BD JAZZ MILES DAVIS CD1 - Whisperingflac Format : FLAC Format/Info : Free Lossless Audio Codec Duration : 1h 17mn Bit rate mode : Variable Bit rate : 391 Kbps Channel(s) : 2 channels Sampling rate : 441 KHz Resolution : 16 bits Stream size : 217 MiB (100%) Writing library : libFLAC 121 (UTC 2007-09-17)Miles Davis - BD JAZZ MILES DAVIS CD2 - Walkin'flac Format : FLAC Format/Info : Free Lossless Audio Codec Duration : 1h 8mn Bit rate mode : Variable Bit rate : 428 Kbps Channel(s) : 2 channels Sampling rate : 441 KHz Resolution : 16 bits Stream size : 210 MiB (100%) Writing library : libFLAC 121 (UTC 2007-09-17)Отчёт Exact Audio Copy "Miles Davis / BD JAZZ MILES DAVIS CD1 - Whispering".


Добро пожаловать на сайт mp3lists.ru, инфо. |

Сертификация услуг сто. |